Verified torrent Deadpool 2 2018 Super Duper Cut UNRATED 1080p BluRay x264 Dual Audio [Hindi DD 5.1 - English DD 5.1] ESub [MW]


    Seeders : 23      Leechers : 88

Warning! Do not Download Torrents Without a VPN!
Your IP Address is 185.162.9.168.   And Location is Netherlands, Naaldwijk
Your Internet Provider and Government can track your torrent Activity!  Hide your IP ADDRESS with a VPN!
We Strongly Recommend Using Best Cheapest VPN to Anonymize your Torrenting.

Note :

Please Update (Trackers Info) Before Start Torrents Downloading to See Updated Seeders And Leechers for Batter Download Speed.

Trackers List

Tracker NameLast CheckStatusSeedersLeechers
udp://tracker.coppersurfer.tk:80/announce3 days agosuccess2387
udp://tracker.pirateparty.gr:6969/announce3 days agosuccess2387
udp://tracker.coppersurfer.tk:6969/announce3 days agosuccess2388
udp://tracker.tiny-vps.com:6969/announce3 days agosuccess2073
udp://tracker.opentrackr.org:1337/announce3 days agosuccess2085
udp://open.stealth.si:80/announce3 days agosuccess1665
udp://public.popcorn-tracker.org:6969/announce3 days agosuccess1453
udp://tracker.vanitycore.co:6969/announce3 days agosuccess1152
udp://tracker.internetwarriors.net:1337/announce3 days agosuccess213
http://9.rarbg.me:2800/announce3 days agosuccess15
http://9.rarbg.to:2720/announce3 days agosuccess15
udp://tracker.port443.xyz:6969/announce3 days agosuccess013
udp://exodus.desync.com:6969/announce3 days agosuccess01
udp://thetracker.org:80/announce3 days agosuccess010
http://share.camoe.cn:8080/announce3 days agosuccess00
udp://bt.xxx-tracker.com:2710/announce3 days agosuccess010
udp://tracker.mg64.net:6969/announce3 days agosuccess05




Torrent File Content (1 file)


Deadpool 2 2018 Super Duper Cut UNRATED 1080p BluRay x264 Dual Audio [Hindi DD 5.1 - English DD 5.1] ESub [MW]
     Deadpool 2 2018 Super Duper Cut UNRATED 1080p BluRay x264 Dual Audio [Hindi DD 5.1 - English DD 5.1] ESub [MW].mkv -
3.82 GB



Description




[url=http://pichub.site/image/ObRud]
http://pichub.site/images/2018/08/08/dead.md.jpg
[/url]


General
Format : Matroska
Format version : Version 4 / Version 2
File size : 3.82 GiB
Duration : 2 h 13 min
Overall bit rate : 4 080 kb/s

Video
ID : 1
Format : AVC
Format/Info : Advanced Video Codec
Format profile : [email protected]
Format settings : CABAC / 4 Ref Frames
Format settings, CABAC : Yes
Format settings, RefFrames : 4 frames
Codec ID : V_MPEG4/ISO/AVC
Duration : 2 h 13 min
Bit rate : 3 200 kb/s
Width : 1 920 pixels
Height : 804 pixels
Display aspect ratio : 2.40:1
Frame rate mode : Constant
Frame rate : 23.976 (24000/1001) FPS
Color space : YUV
Chroma subsampling : 4:2:0
Bit depth : 8 bits
Scan type : Progressive
Bits/(Pixel*Frame) : 0.086
Stream size : 2.97 GiB (78%)
Writing library : x264 core 155 r2901 7d0ff22
Default : Yes
Forced : No

Audio #1
ID : 2
Format : AC-3
Format/Info : Audio Coding 3
Codec ID : A_AC3
Duration : 2 h 13 min
Bit rate mode : Constant
Bit rate : 448 kb/s
Channel(s) : 6 channels
Channel positions : Front: L C R, Side: L R, LFE
Sampling rate : 48.0 kHz
Frame rate : 31.250 FPS (1536 SPF)
Bit depth : 16 bits
Compression mode : Lossy
Stream size : 429 MiB (11%)
Language : Hindi
Service kind : Complete Main
Default : Yes
Forced : No

Audio #2
ID : 3
Format : AC-3
Format/Info : Audio Coding 3
Codec ID : A_AC3
Duration : 2 h 13 min
Bit rate mode : Constant
Bit rate : 448 kb/s
Channel(s) : 6 channels
Channel positions : Front: L C R, Side: L R, LFE
Sampling rate : 48.0 kHz
Frame rate : 31.250 FPS (1536 SPF)
Bit depth : 16 bits
Compression mode : Lossy
Stream size : 429 MiB (11%)
Language : English
Service kind : Complete Main
Default : No
Forced : No

Text #1
ID : 4
Format : PGS
Muxing mode : zlib
Codec ID : S_HDMV/PGS
Codec ID/Info : Picture based subtitle format used on BDs/HD-DVDs
Duration : 2 h 11 min
Bit rate : 5 822 b/s
Count of elements : 4262
Stream size : 5.48 MiB (0%)
Language : English
Default : No
Forced : No

Text #2
ID : 5
Format : UTF-8
Codec ID : S_TEXT/UTF8
Codec ID/Info : UTF-8 Plain Text
Duration : 2 h 11 min
Bit rate : 64 b/s
Count of elements : 2131
Stream size : 61.9 KiB (0%)
Default : Yes
Forced : No


Click To Enlarge Image

[url=http://pichub.site/image/Sa7t4]
http://pichub.site/images/2018/08/19/00_10_17.md.jpg
[/url]
[url=http://pichub.site/image/SaVpp]
http://pichub.site/images/2018/08/19/00_04_00.md.jpg
[/url]
[url=http://pichub.site/image/Sawcb]
http://pichub.site/images/2018/08/19/00_13_36.md.jpg
[/url]
[url=http://pichub.site/image/Sacey]
http://pichub.site/images/2018/08/19/00_35_12.md.jpg
[/url]
[url=http://pichub.site/image/Sayv0]
http://pichub.site/images/2018/08/19/00_51_44.md.jpg
[/url]
[url=http://pichub.site/image/SaCHV]
http://pichub.site/images/2018/08/19/01_08_45.md.jpg
[/url]
[url=http://pichub.site/image/SaiST]
http://pichub.site/images/2018/08/19/01_33_14.md.jpg
[/url]


Related torrents

Torrent NameAddedSizeSeedLeechHealth
Verified torrent
12 days ago - in Movies2.34 GB1955
Verified torrent
4 days ago - in Movies4.24 GB4895
Verified torrent
9 days ago - in Movies2.22 GB00
Verified torrent
Last Month - in Movies7.8 GB1626
Verified torrent
7 days ago - in Movies8.45 GB1693

Note :

Feel free to post any comments about this torrent, including links to Subtitle, samples, screenshots, or any other relevant information. Please Dont Download anything from Comments, And Links to Streaming Sites like Watch Online Deadpool 2 2018 Super Duper Cut UNRATED 1080p BluRay x264 Dual Audio [Hindi DD 5.1 - English DD 5.1] ESub [MW] Full Movie, Fmovies, 123Movies, Putlocker, Netflix, etc.

Comments (0 Comments)




Please login or create a FREE account to post comments

Latest Searches