Verified torrent Deadpool 2 2018 Super Duper Cut UNRATED 1080p BluRay x264 Dual Audio [Hindi DD 5.1 - English DTS] ESub [MW]


    Seeders : 25      Leechers : 51

Warning! Do not Download Torrents Without a VPN!
Your IP Address is 185.162.9.168.   And Location is Netherlands, Naaldwijk
Your Internet Provider and Government can track your torrent Activity!  Hide your IP ADDRESS with a VPN!
We Strongly Recommend Using Best Cheapest VPN to Anonymize your Torrenting.

Note :

Please Update (Trackers Info) Before Start Torrents Downloading to See Updated Seeders And Leechers for Batter Download Speed.

Trackers List

Tracker NameLast CheckStatusSeedersLeechers
udp://tracker.pirateparty.gr:6969/announce2 days agosuccess2551
udp://tracker.coppersurfer.tk:80/announce2 days agosuccess2551
udp://tracker.coppersurfer.tk:6969/announce2 days agosuccess2551
udp://tracker.opentrackr.org:1337/announce2 days agosuccess1536
udp://open.stealth.si:80/announce2 days agosuccess1428
udp://tracker.tiny-vps.com:6969/announce2 days agosuccess1234
udp://public.popcorn-tracker.org:6969/announce2 days agosuccess1220
udp://tracker.vanitycore.co:6969/announce2 days agosuccess1022
udp://bt.xxx-tracker.com:2710/announce2 days agosuccess12
udp://tracker.internetwarriors.net:1337/announce2 days agosuccess15
udp://thetracker.org:80/announce2 days agosuccess15
udp://tracker.port443.xyz:6969/announce2 days agosuccess03
udp://exodus.desync.com:6969/announce2 days agosuccess00
http://share.camoe.cn:8080/announce2 days agosuccess00
udp://tracker.mg64.net:6969/announce2 days agosuccess00




Torrent File Content (1 file)


Deadpool 2 2018 Super Duper Cut UNRATED 1080p BluRay x264 Dual Audio [Hindi DD 5.1 - English DTS] ESub [MW]
     Deadpool 2 2018 Super Duper Cut UNRATED 1080p BluRay x264 Dual Audio [Hindi DD 5.1 - English DTS] ESub [MW].mkv -
7.41 GB



Description




[url=http://pichub.site/image/ObRud]
http://pichub.site/images/2018/08/08/dead.jpg
[/url]


General
Unique ID :
Format : Matroska
Format version : Version 4 / Version 2
File size : 7.41 GiB
Duration : 2 h 13 min
Overall bit rate : 7 918 kb/s

Video
ID : 1
Format : AVC
Format/Info : Advanced Video Codec
Format profile : [email protected]
Format settings : CABAC / 4 Ref Frames
Format settings, CABAC : Yes
Format settings, RefFrames : 4 frames
Codec ID : V_MPEG4/ISO/AVC
Duration : 2 h 13 min
Bit rate : 6 000 kb/s
Width : 1 920 pixels
Height : 804 pixels
Display aspect ratio : 2.40:1
Frame rate mode : Constant
Frame rate : 23.976 (24000/1001) FPS
Color space : YUV
Chroma subsampling : 4:2:0
Bit depth : 8 bits
Scan type : Progressive
Bits/(Pixel*Frame) : 0.162
Stream size : 5.57 GiB (75%)
Writing library : x264 core 155 r2901 7d0ff22
Default : Yes
Forced : No

Audio #1
ID : 2
Format : AC-3
Format/Info : Audio Coding 3
Codec ID : A_AC3
Duration : 2 h 13 min
Bit rate mode : Constant
Bit rate : 448 kb/s
Channel(s) : 6 channels
Channel positions : Front: L C R, Side: L R, LFE
Sampling rate : 48.0 kHz
Frame rate : 31.250 FPS (1536 SPF)
Bit depth : 16 bits
Compression mode : Lossy
Stream size : 429 MiB (6%)
Language : Hindi
Service kind : Complete Main
Default : Yes
Forced : No

Audio #2
ID : 4
Format : DTS
Format/Info : Digital Theater Systems
Codec ID : A_DTS
Duration : 2 h 13 min
Bit rate mode : Constant
Bit rate : 1 509 kb/s
Channel(s) : 7 channels / 6 channels
Channel positions : Front: L C R, Side: L R, Back: C, LFE / Front: L C R, Side: L R, LFE
Sampling rate : 48.0 kHz
Frame rate : 93.750 FPS (512 SPF)
Bit depth : 24 bits
Compression mode : Lossy
Stream size : 1.41 GiB (19%)
Language : English
Default : No
Forced : No

Text #1
ID : 3
Format : UTF-8
Codec ID : S_TEXT/UTF8
Codec ID/Info : UTF-8 Plain Text
Duration : 2 h 11 min
Bit rate : 64 b/s
Count of elements : 2131
Stream size : 61.9 KiB (0%)
Default : Yes
Forced : No

Text #2
ID : 5
Format : PGS
Muxing mode : zlib
Codec ID : S_HDMV/PGS
Codec ID/Info : Picture based subtitle format used on BDs/HD-DVDs
Duration : 2 h 11 min
Bit rate : 5 822 b/s
Count of elements : 4262
Stream size : 5.48 MiB (0%)
Language : English
Default : No
Forced : No


Click To Enlarge Image

[url=http://pichub.site/image/SaGxJ]
http://pichub.site/images/2018/08/19/00_19_44.md.jpg
[/url]
[url=http://pichub.site/image/Sauk8]
http://pichub.site/images/2018/08/19/00_29_36.md.jpg
[/url]
[url=http://pichub.site/image/SaNH5]
http://pichub.site/images/2018/08/19/00_47_46.md.jpg
[/url]
[url=http://pichub.site/image/SavDh]
http://pichub.site/images/2018/08/19/00_58_10.md.jpg
[/url]
[url=http://pichub.site/image/Saxgj]
http://pichub.site/images/2018/08/19/01_11_41.md.jpg
[/url]
[url=http://pichub.site/image/Sa0nr]
http://pichub.site/images/2018/08/19/01_19_14.md.jpg
[/url]
[url=http://pichub.site/image/SarYk]
http://pichub.site/images/2018/08/19/01_23_36.md.jpg
[/url]
[url=http://pichub.site/image/SaotQ]
http://pichub.site/images/2018/08/19/02_00_29.md.jpg
[/url]


Related torrents

Torrent NameAddedSizeSeedLeechHealth
Verified torrent
3 days ago - in Movies3.82 GB2388
Verified torrent
3 days ago - in Movies1.29 GB4936
Verified torrent
12 days ago - in Movies2.34 GB1955
Verified torrent
12 days ago - in Movies4.39 GB6523
Verified torrent
4 days ago - in Movies7.69 GB3545

Note :

Feel free to post any comments about this torrent, including links to Subtitle, samples, screenshots, or any other relevant information. Please Dont Download anything from Comments, And Links to Streaming Sites like Watch Online Deadpool 2 2018 Super Duper Cut UNRATED 1080p BluRay x264 Dual Audio [Hindi DD 5.1 - English DTS] ESub [MW] Full Movie, Fmovies, 123Movies, Putlocker, Netflix, etc.

Comments (0 Comments)




Please login or create a FREE account to post comments

Latest Searches